#TITLE:Bad Apple!! (REDALiCE REMIX);
#SUBTITLE:SDO China;
#ARTIST:Alstroemeria Records;
#TITLETRANSLIT:;
#SUBTITLETRANSLIT:;
#ARTISTTRANSLIT:;
#CREDIT:;
#BANNER:bn.png;
#BACKGROUND:bg.jpg;
#LYRICSPATH:;
#CDTITLE:cd.png;
#MUSIC:Alstroemeria Records - Bad Apple!!.mp3;
#OFFSET:0.021;
#SAMPLESTART:0.115;
#SAMPLELENGTH:12.000;
#SELECTABLE:YES;
#BPMS:0.000=170.000;
#STOPS:;
#BGCHANGES:;
// cache tags:
#FIRSTBEAT:0.000;
#LASTBEAT:459.500;
#SONGFILENAME:Songs/Super Dancer Online/Bad Apple!!/Alstroemeria Records - Bad Apple!!.sm;
#HASMUSIC:1;
#HASBANNER:1;
#MUSICLENGTH:168.833;
// end cache tags

//---------------dance-single - Blank----------------
#NOTES:
     dance-single:
     Blank:
     Hard:
     30:
     1.000,1.000,1.000,1.000,1.000,1178.000,422.000,510.000,0.000,69.000:

1001
0010
0100
0000
1002
0010
0103
0000
1001
0010
0100
0000
1002
0010
0103
0000
,
1001
0000
0010
0100
2001
0000
3010
0100
1001
0000
0010
0100
2001
0000
3010
0100
,
1001
0000
0100
0010
1002
0000
0103
0010
1001
0000
0100
0010
1002
0000
0103
0010
,
1001
0000
0100
0010
2001
0000
3100
0010
1001
0000
0100
0010
2001
0000
3100
0010
,
2001
0000
0010
3000
0100
0000
0000
0000
2001
0000
0010
3000
0100
0000
0000
0000
2001
0000
0010
3000
0100
0000
0000
0000
2001
0000
0010
3000
0100
0000
0000
0000
,
1002
0000
0100
0003
0010
0000
0000
0000
1002
0000
0100
0003
0010
0000
0000
0000
1002
0000
0100
0003
0010
0000
0000
0000
1002
0000
0100
0003
0010
0000
0000
0000
,
2001
0000
0010
3000
0100
0000
0000
0000
2001
0000
0010
3000
0100
0000
0000
0000
2001
0000
0010
3000
0100
0000
0000
0000
0001
0000
0001
0000
0010
0000
0010
0000
,
1100
0000
0001
0000
1100
0000
0010
0010
1100
0000
0011
0000
1100
0011
1100
0011
,
2001
0000
0000
3000
0100
0000
0010
0000
1002
0000
0000
0003
0010
0000
0100
0000
2001
0000
0000
3000
0100
0000
0010
0000
1002
0000
0000
0003
0010
0000
0100
0000
,
2001
0000
0000
3000
0100
0000
0010
0000
1002
0000
0000
0003
0010
0000
0100
0000
2001
0000
0000
3000
0100
0000
0010
0000
1002
0000
0000
0003
0010
0000
0100
0000
,
1021
0000
0000
0030
0100
0000
1000
0000
0210
0000
0000
0300
0001
0000
1000
0000
0021
0000
0000
0030
0100
0000
1000
0000
0210
0000
0000
0300
0001
0000
1000
0000
,
0021
0000
0000
0030
0100
0000
1000
0000
0210
0000
0000
0300
0001
0000
1000
0000
0021
0000
0000
0030
0100
0000
1000
0000
0210
0000
0000
0300
0001
0000
0010
0000
,
2001
0000
0010
3000
0100
0000
0010
0000
2001
0000
0010
3000
0100
0000
0010
0000
2001
0000
0010
3000
0100
0000
0010
0000
2001
0000
0010
3000
0100
0000
0010
0000
,
1200
0000
0010
0300
0001
0000
0010
0000
1200
0000
0010
0300
0001
0000
0010
0000
1200
0000
0010
0300
0001
0000
0010
0000
1200
0000
0010
0300
0001
0000
0010
0000
,
1002
0000
0100
0003
0010
0000
0100
0000
1002
0000
0100
0003
0010
0000
0100
0000
1002
0000
0100
0003
0010
0000
0100
0000
1002
0000
0100
0003
0010
0000
0100
0000
,
1011
0000
0220
0000
1331
0000
2222
3333
,
1100
0110
0011
0110
1100
0000
0010
0100
,
1000
0000
0100
0010
0001
0000
0010
0100
,
1000
0000
0000
1000
0000
0000
0100
0000
0000
0000
0100
0000
0000
0000
0000
0000
,
0000
0000
0000
0000
,
1100
0110
0011
0110
1100
0010
0001
0100
,
1000
0000
0010
0000
0001
0000
0010
0100
1000
0000
0100
0000
0010
0000
0001
0000
,
1000
0000
0010
0000
0001
0000
0010
0100
1000
0000
0100
0010
0001
0000
0100
0000
,
1000
0000
0010
0000
0001
0010
0100
1000
0001
0000
0010
0000
0100
0100
0010
0010
,
2100
0000
0000
3000
0210
0000
0000
0300
2001
0000
0000
3000
0012
0000
0000
0003
2100
0000
0000
0000
0010
0000
0001
0000
0000
0000
0100
0000
0010
0000
0001
0000
,
0100
0010
0001
0010
0100
0010
0001
0010
0100
0010
0001
0010
0100
0010
0001
0010
,
3002
0000
0000
0003
0020
0030
0200
0300
0000
0000
2000
3000
0200
0300
0020
0030
0002
0000
0000
0003
0020
0030
0200
0300
0000
0000
2000
3000
0200
0300
0020
0030
,
0002
0000
0000
0003
0020
0030
0200
0300
0000
0000
2000
3000
0200
0300
0020
0030
0002
0000
0000
0003
0010
0000
0010
0000
0100
0000
0100
0000
1000
0000
1000
0000
,
0012
0000
0100
0003
1020
0000
0100
0030
1002
0000
0100
0003
2010
0000
0100
3000
0012
0000
0100
0000
1000
0000
0100
0000
0010
0000
0100
0000
1000
0000
0100
0000
,
0020
0030
0200
0300
2000
3000
0200
0300
0020
0030
0200
0300
2000
3000
0200
0300
0020
0030
0200
0300
2000
3000
0200
0300
0020
0030
0200
0300
2000
3000
0200
0303
,
0010
0010
0001
0001
0100
0100
1000
1000
0010
0010
0001
0001
0100
0100
1000
1000
,
0110
0000
1111
1111
,
0022
0000
0000
0033
0100
0000
1000
0000
0022
0000
0000
0033
0100
0000
1000
0000
0022
0000
0000
0033
0100
0000
1000
0000
0022
0000
0000
0033
0100
0000
1000
0000
,
0022
0000
0000
0033
0100
0000
1000
0000
0022
0000
0000
0033
0100
0000
1000
0000
0022
0000
0000
0033
0100
0000
1000
0000
0022
0000
0000
0033
0100
0000
0010
0000
,
2200
0000
0000
3300
0010
0000
0001
0000
2200
0000
0000
3300
0010
0000
0001
0000
2200
0000
0000
3300
0010
0000
0001
0000
2200
0000
0000
3300
0010
0000
0001
0000
,
2200
0000
0000
3300
0010
0000
0001
0000
2200
0000
0000
3300
0010
0000
0001
0000
2200
0000
0000
3300
0010
0000
0001
0000
2200
0000
0000
3300
0010
0000
0001
0000
,
2010
0000
0000
0000
0100
0000
0000
3000
0102
0000
0000
0000
0010
0000
0000
0003
2010
0000
0000
0000
0100
0000
0000
3000
0102
0000
0000
0000
0010
0000
0000
0003
,
2010
0000
0000
0000
0100
0000
0000
3000
0102
0000
0000
0000
0010
0000
0000
0003
2010
0000
0000
0000
0100
0000
0000
3000
0102
0000
0000
0000
0010
0000
0000
0003
,
2010
0000
0000
0000
0100
0000
0000
3000
0201
0000
0000
0000
0010
0000
0000
0300
1020
0000
0000
0000
0100
0000
0000
0030
1002
0000
0000
0000
0100
0000
0000
0003
,
2010
0000
0000
0000
0100
0000
0000
3000
0201
0000
0000
0000
0010
0000
0000
0300
1020
0000
0000
0000
0100
0000
0000
0030
1002
0000
0000
0000
0100
0000
0000
0003
,
0200
0300
2000
3000
0020
0030
0200
0300
0002
0003
2000
3000
0200
0300
0020
0030
0200
0300
2000
3000
0020
0030
0200
0300
0002
0003
2000
3000
0200
0300
0020
0030
,
0200
0300
2000
3000
0020
0030
0200
0300
0002
0003
2000
3000
0200
0300
0020
0030
0200
0300
2000
3000
0020
0030
0200
0300
0002
0003
2000
3000
0200
0300
0020
0030
,
0200
0300
2000
3000
0020
0030
0200
0300
0002
0003
2000
3000
0200
0300
0020
0030
0200
0300
2000
3000
0020
0030
0200
0300
0002
0003
2000
3000
0200
0300
0020
0030
,
0200
0300
2000
3000
0020
0030
0200
0300
0002
0003
2000
3000
0200
0300
0020
0030
0200
0300
2000
3000
0020
0030
0200
0300
0002
0003
2000
3000
0200
0300
0020
0030
,
2200
0000
0001
3300
0010
0000
0100
0000
0022
0000
1000
0033
0100
0000
0010
0000
2200
0000
0001
3300
0010
0000
0100
0000
0022
0000
1000
0033
0100
0000
0010
0000
,
2200
0000
0001
3300
0010
0000
0100
0000
0022
0000
1000
0033
0100
0000
0010
0000
2200
0000
0001
3300
0010
0000
0100
0000
0022
0000
1000
0033
0100
0000
0010
0000
,
2002
0000
0010
3003
0100
0000
1000
0000
0220
0000
0001
0330
1000
0000
0100
0000
2002
0000
0100
3003
0010
0000
0001
0000
0220
0000
0001
0330
1000
0000
0100
0000
,
1011
0000
1101
1011
,
1100
0110
0011
0101
1010
0100
1010
0101
,
0011
0100
1010
0100
0011
0110
1100
1001
,
0101
0011
0101
1010
0101
0010
1100
0110
,
0011
0101
1010
0101
0011
0101
1010
0101
,
1010
0101
0011
0101
1010
0100
0011
0110
,
1100
0001
0110
0001
1100
1010
0101
0011
,
1100
1010
0101
0011
0101
0010
1100
0110
,
0011
1000
0110
1000
0011
0100
1010
0100
,
1010
0100
1010
0001
1010
0100
1010
0001
0110
1000
0100
0010
0101
1000
0110
0001
,
0110
1000
0100
0010
0101
0010
0100
1000
0011
0100
1010
0100
0011
0100
1010
0100
,
1010
0100
1010
0001
1010
0100
1010
0001
0110
1000
0100
0010
0101
1000
0110
0001
,
1010
0100
0011
0100
1010
0100
0011
0100
1010
0100
0011
0100
1010
0100
1010
0001
,
1010
0100
1010
0001
1010
0100
1010
0001
0110
1000
0100
0010
0101
1000
0110
0001
,
0110
1000
0100
0010
0101
0010
0100
1000
0011
0100
1010
0100
0011
0100
1010
0100
,
1010
0100
1010
0001
1010
0100
1010
0001
0110
1000
0100
0010
0101
1000
0110
0001
,
1010
0100
0010
0001
0110
1000
0100
0010
0101
0010
0100
1000
0110
0001
0010
0100
,
1020
0000
0000
0030
0102
0000
0000
0003
0210
0000
0000
0300
2001
0000
0000
3000
0210
0000
0000
0000
0001
0000
0000
0300
2010
0000
0000
3000
0201
0000
0000
0300
,
1020
0000
0000
0030
0102
0000
0000
0003
0210
0000
0000
0300
2001
0000
0000
3000
0210
0000
0000
0000
0001
0000
0000
0300
2010
0000
0000
3000
0201
0000
0000
0300
,
0012
0000
0000
0003
0120
0000
0000
0030
1200
0000
0000
0300
2010
0000
0000
3000
0201
0000
0000
0000
0010
0000
0000
0300
1002
0000
0000
0003
0120
0000
0000
0030
,
2001
0000
0000
3000
0210
0000
0000
0300
1020
0000
0000
0030
0102
0000
0000
0003
1020
0000
0000
0000
0100
0000
0000
0030
2001
0000
0000
3000
0210
0000
0000
0300
,
1020
0000
0000
0030
0102
0000
0000
0003
0210
0000
0000
0300
2001
0000
0000
3000
0210
0000
0000
0000
0001
0000
0000
0300
2010
0000
0000
3000
0201
0000
0000
0300
,
1020
0000
0000
0030
0102
0000
0000
0003
0210
0000
0000
0300
2001
0000
0000
3000
0210
0000
0000
0000
0001
0000
0000
0300
2010
0000
0000
3000
0201
0000
0000
0300
,
0012
0000
0000
0003
0120
0000
0000
0030
1200
0000
0000
0300
2010
0000
0000
3000
0201
0000
0000
0000
0010
0000
0000
0300
1002
0000
0000
0003
0120
0000
0000
0030
,
2001
0000
0000
3000
0210
0000
0000
0300
1020
0000
0000
0030
0102
0000
0000
0003
1020
0000
0000
0000
0100
0000
0000
0030
2001
0000
0000
3000
0210
0000
0000
0300
,
2001
0000
0010
3000
0102
0000
1000
0003
0120
0000
0001
0030
1200
0000
0010
0300
1002
0000
0100
0000
0010
0000
0100
0003
2010
0000
0100
3000
0021
0000
0100
0030
,
2001
0000
0010
3000
0102
0000
1000
0003
0120
0000
0001
0030
1200
0000
0010
0300
1002
0000
0100
0000
0010
0000
0100
0003
2010
0000
0100
3000
0021
0000
0100
0030
,
2001
0000
0010
3000
0201
0000
0010
0300
2001
0000
0010
3000
0201
0000
0010
0300
1002
0000
0100
0000
0010
0000
0100
0003
1020
0000
0001
0030
1200
0000
0010
0300
,
1002
0000
0100
0003
1020
0000
0100
0030
1002
0000
0100
0003
1020
0000
0100
0030
2001
0000
0010
0000
0100
0000
0010
3000
0102
0000
0010
0003
1200
0000
0010
0300
,
2001
0000
0010
3000
0102
0000
1000
0003
0120
0000
0001
0030
1200
0000
0010
0300
1002
0000
0100
0000
0010
0000
0100
0003
2010
0000
0100
3000
0021
0000
0100
0030
,
2001
0000
0010
3000
0102
0000
1000
0003
0120
0000
0001
0030
1200
0000
0010
0300
1002
0000
0100
0000
0010
0000
0100
0003
2010
0000
0100
3000
0021
0000
0100
0030
,
2001
0000
0010
3000
0201
0000
0010
0300
2001
0000
0010
3000
0201
0000
0010
0300
1002
0000
0100
0000
0010
0000
0100
0003
1020
0000
0001
0030
1200
0000
0010
0300
,
1002
0000
0100
0003
1020
0000
0100
0030
1002
0000
0100
0003
1020
0000
0100
0030
2001
0000
0010
0000
0100
0000
0010
3000
0102
0000
0010
0003
1200
0000
0010
0300
,
2002
0000
0000
0000
0000
0000
0000
0003
,
0020
0000
0000
0000
0000
0000
0000
3030
,
0202
0000
0000
0000
0000
0000
0000
0300
,
2000
0000
0000
0000
0000
0000
0000
3003
,
0002
0000
0020
0000
0200
0000
2000
0003
,
0002
0030
0020
0300
0200
3000
2000
0003
,
0002
0030
0020
0300
0200
3000
2000
0003
,
0002
0030
0020
0300
0200
3000
2000
3333
,
1101
0000
0000
0000
1011
1101
0000
0000
,
1101
0000
0000
0000
1011
1101
0000
0000
,
1101
0000
0000
0000
1011
1101
0000
0000
,
1101
0000
0000
0000
1011
1101
0000
0000
,
1101
0000
0000
0000
1011
1101
0000
0000
,
1101
0000
0000
0000
1011
1101
0000
0000
,
1000
1000
0100
0100
0010
0010
0001
0001
,
1110
0000
0000
0000
0000
0000
0000
0000
0000
0000
0000
0000
0000
0000
0000
0000
0002
0000
0000
0000
0000
0000
0000
0003
0020
0000
0000
0000
0000
0000
0000
0030
,
2200
0000
0000
3300
0010
0000
0001
0000
2200
0000
0000
3300
0010
0000
0001
0000
2200
0000
0000
3300
0010
0000
0001
0000
2200
0000
0000
3300
0010
0000
0001
0000
,
2200
0000
0000
3300
0010
0000
0001
0000
2200
0000
0000
3300
0010
0000
0001
0000
2200
0000
0000
3300
0010
0000
0001
0000
2200
0000
0000
3300
0010
0000
0100
0000
,
0022
0000
0000
0033
0100
0000
1000
0000
0022
0000
0000
0033
0100
0000
1000
0000
0022
0000
0000
0033
0100
0000
1000
0000
0022
0000
0000
0033
0100
0000
1000
0000
,
0022
0000
0000
0033
0100
0000
1000
0000
0022
0000
0000
0033
0100
0000
1000
0000
0022
0000
0000
0033
0100
0000
1000
0000
0022
0000
0000
0033
0100
0000
0010
0000
,
2001
0000
0000
0000
0100
0000
0000
3000
0102
0000
0000
0000
0010
0000
0000
0003
2010
0000
0000
0000
0100
0000
0000
3000
0102
0000
0000
0000
0010
0000
0000
0003
,
2010
0000
0000
0000
0100
0000
0000
3000
0102
0000
0000
0000
0010
0000
0000
0003
2010
0000
0000
0000
0100
0000
0000
3000
0102
0000
0000
0000
0010
0000
0000
0003
,
2010
0000
0000
0000
0100
0000
0000
3000
0201
0000
0000
0000
0010
0000
0000
0300
1020
0000
0000
0000
0100
0000
0000
0030
1002
0000
0000
0000
0100
0000
0000
0003
,
2010
0000
0000
0000
0100
0000
0000
3000
0201
0000
0000
0000
0010
0000
0000
0300
1020
0000
0000
0000
0100
0000
0000
0030
1002
0000
0000
0000
0100
0000
0000
0003
,
0200
0300
2000
3000
0020
0030
0200
0300
0002
0003
2000
3000
0200
0300
0020
0030
0200
0300
2000
3000
0020
0030
0200
0300
0002
0003
2000
3000
0200
0300
0020
0030
,
0200
0300
2000
3000
0020
0030
0200
0300
0002
0003
2000
3000
0200
0300
0020
0030
0200
0300
2000
3000
0020
0030
0200
0300
0002
0003
2000
3000
0200
0300
0020
0030
,
0200
0300
2000
3000
0020
0030
0200
0300
0002
0003
2000
3000
0200
0300
0020
0030
0200
0300
2000
3000
0020
0030
0200
0300
0002
0003
2000
3000
0200
0300
0020
0030
,
0200
0300
2000
3000
0020
0030
0200
0300
0002
0003
2000
3000
0200
0300
0020
0030
0200
0300
2000
3000
0020
0030
0200
0300
0002
0003
2000
3000
0200
0300
0020
0030
,
2200
0000
0001
3300
0010
0000
0100
0000
0022
0000
1000
0033
0100
0000
0010
0000
2200
0000
0001
3300
0010
0000
0100
0000
0022
0000
1000
0033
0100
0000
0010
0000
,
2200
0000
0001
3300
0010
0000
0100
0000
0022
0000
1000
0033
0100
0000
0010
0000
2200
0000
0001
3300
0010
0000
0100
0000
0022
0000
1000
0033
0100
0000
0010
0000
,
2002
0000
0010
3003
0100
0000
1000
0000
0220
0000
0001
0330
1000
0000
0100
0000
2002
0000
0100
3003
0010
0000
0001
0000
0220
0000
0001
0330
1000
0000
0100
0000
,
2002
0000
0110
0110
,
0220
0000
0000
0000
,
3003
0000
0000
0000
,
0000
0000
0000
0000
0000
0000
0000
0330
;
